Index · Правила · Поиск· Группы · Регистрация · Личные сообщения· Вход

Список разделов Компьютерный раздел
 
 
 

Раздел: Компьютерный раздел Посоветуйте видеоконвертор 

Создана: 10 Февраля 2017 Птн 12:07:11.
Раздел: "Компьютерный раздел"
Сообщений в теме: 15, просмотров: 2409

  1. 10 Февраля 2017 Птн 12:07:11
    Нужно перекодировать HD видео из 4К в 1080р.
    Контейнер mkv.

    Бесплатный, а то знаю я вас! Недовольство!
  2. tuba111


    Хранитель


    Более 7 лет на форумеПрописка в разделе А.Д.Муж.
    10 Февраля 2017 Птн 16:28:28
    А что значит HD видео в 4К и почему оно HD?
  3. Artem_G


    Частый гость


    Более 7 лет на форумеМуж.
    10 Февраля 2017 Птн 16:42:45
    tuba111 писал : А что значит HD видео в 4К и почему оно HD?

    наоборот Very Happy
  4. 10 Февраля 2017 Птн 16:44:27
    tuba111 писал : А что значит HD видео в 4К и почему оно HD?

    непонятно написал?))

    исходные файлы записаны в 4К - 2160р, мой медиаплеер их не читает, нужно переконвертировать в 1080р
  5. tuba111


    Хранитель


    Более 7 лет на форумеПрописка в разделе А.Д.Муж.
    10 Февраля 2017 Птн 16:45:52
    транскодировать плеер тоже не умеет?
  6. 10 Февраля 2017 Птн 16:46:40
    tuba111 писал : транскодировать плеер тоже не умеет?

    если бы умел, я бы тут не писал.
  7. 10 Февраля 2017 Птн 16:48:58
    General
    Unique ID : 219536005336664555213635458929188175623 (0xA52918BE6032F07CA9E18778C2B07F07)
    Complete name : D:\download\House.of.Cards.S04\House.of.Cards.S04E01.2160p.Netflix.WEBRip.Rus.Eng.iON-ULTRAHDCLUB.mkv
    Format : Matroska
    Format version : Version 2
    File size : 7.86 GiB
    Duration : 48 min 39 s
    Overall bit rate : 23.1 Mb/s
    Movie name : House of Cards - Season 4, Episode 1: Chapter 40 (2016) - Release for ULTRAHDCLUB
    Encoded date : UTC 2016-03-28 08:10:55
    Writing application : mkvmerge v3.4.0 ('Rapunzel') built on May 15 2010 09:38:20
    Writing library : libebml v0.8.0 + libmatroska v0.9.0

    Video
    ID : 1
    Format : AVC
    Format/Info : Advanced Video Codec
    Format profile : High@L5.1
    Format settings, CABAC : Yes
    Format settings, ReFrames : 6 frames
    Codec ID : V_MPEG4/ISO/AVC
    Duration : 48 min 39 s
    Bit rate : 21.7 Mb/s
    Width : 3 840 pixels
    Height : 1 920 pixels
    Display aspect ratio : 2.000
    Frame rate mode : Constant
    Frame rate : 23.976 (24000/1001) FPS
    Color space : YUV
    Chroma subsampling : 4:2:0
    Bit depth : 8 bits
    Scan type : Progressive
    Bits/(Pixel*Frame) : 0.123
    Stream size : 7.36 GiB (94%)
    Title : House of Cards - Season 4, Episode 1: Chapter 40 (2016) - Release for ULTRAHDCLUB
    Writing library : x264 core 148 r2665 a01e339
    Encoding settings : cabac=1 / ref=6 / deblock=1:-1:-1 / analyse=0x3:0x133 / me=umh / subme=10 / psy=1 / psy_rd=1.05:0.00 / mixed_ref=1 / me_range=24 / chroma_me=1 / trellis=2 / 8x8dct=1 / cqm=0 / deadzone=21,11 / fast_pskip=1 / chroma_qp_offset=-2 / threads=24 / lookahead_threads=4 / sliced_threads=0 / nr=0 / decimate=1 / interlaced=0 / bluray_compat=0 / constrained_intra=0 / bframes=8 / b_pyramid=2 / b_adapt=2 / b_bias=0 / direct=3 / weightb=1 / open_gop=0 / weightp=2 / keyint=250 / keyint_min=23 / scenecut=40 / intra_refresh=0 / rc_lookahead=60 / rc=crf / mbtree=1 / crf=15.5 / qcomp=0.60 / qpmin=0 / qpmax=69 / qpstep=4 / ip_ratio=1.40 / aq=2:0.90
    Language : English
    Default : Yes
    Forced : No
    Color range : Limited
    Color primaries : BT.709
    Transfer characteristics : BT.709
    Matrix coefficients : BT.709

    Audio #1
    ID : 2
    Format : AC-3
    Format/Info : Audio Coding 3
    Mode extension : CM (complete main)
    Format settings, Endianness : Big
    Codec ID : A_AC3
    Duration : 48 min 39 s
    Bit rate mode : Constant
    Bit rate : 640 kb/s
    Channel(s) : 6 channels
    Channel positions : Front: L C R, Side: L R, LFE
    Sampling rate : 48.0 kHz
    Frame rate : 31.250 FPS (1536 spf)
    Bit depth : 16 bits
    Compression mode : Lossy
    Stream size : 223 MiB (3%)
    Title : AC3 5.1 @ 640 kbps - MVO, Amedia
    Language : Russian
    Default : Yes
    Forced : No

    Audio #2
    ID : 3
    Format : AC-3
    Format/Info : Audio Coding 3
    Mode extension : CM (complete main)
    Format settings, Endianness : Big
    Codec ID : A_AC3
    Duration : 48 min 39 s
    Bit rate mode : Constant
    Bit rate : 384 kb/s
    Channel(s) : 6 channels
    Channel positions : Front: L C R, Side: L R, LFE
    Sampling rate : 48.0 kHz
    Frame rate : 31.250 FPS (1536 spf)
    Bit depth : 16 bits
    Compression mode : Lossy
    Stream size : 134 MiB (2%)
    Title : AC3 5.1 @ 384 kbps
    Language : English
    Default : No
    Forced : No

    Text #1
    ID : 4
    Format : UTF-8
    Codec ID : S_TEXT/UTF8
    Codec ID/Info : UTF-8 Plain Text
    Title : Amedia
    Language : Russian
    Default : No
    Forced : No

    Text #2
    ID : 5
    Format : UTF-8
    Codec ID : S_TEXT/UTF8
    Codec ID/Info : UTF-8 Plain Text
    Title : SDH
    Language : English
    Default : No
    Forced : No
  8. tuba111


    Хранитель


    Более 7 лет на форумеПрописка в разделе А.Д.Муж.
    10 Февраля 2017 Птн 17:00:37
    Mkvtoolnix попробуй
  9. 10 Февраля 2017 Птн 17:01:28
    tuba111 писал : Mkvtoolnix попробуй

    есть у меня такая прога, не получилось.
  10. tuba111


    Хранитель


    Более 7 лет на форумеПрописка в разделе А.Д.Муж.
    10 Февраля 2017 Птн 17:12:56
    В вегасе можно, но он платный... Вопрос вареза не рассматривается, как я понял...
  11. 10 Февраля 2017 Птн 17:36:23
    ffmpeg не?
  12. Nik2015


    Завсегдатай


    Более трёх лет на форумеПрописка в разделе А.Д.
    10 Февраля 2017 Птн 19:32:57
    Ну если бесплатный, то вот
    [внешняя ссылка]

    Ещё как вариант, если в плеере есть возможность просмотра с ютуб, создать свой канал ютуб.
    Залить туда видео в исходном 4k
    Потом сможете смотреть по приватному просмотру, плюс в 4k всё сохранится.

    Ну или потом скачать с ютуба 720p через [внешняя ссылка]

    tuba111 писал : А что значит HD видео в 4К и почему оно HD?

    Человек просто видимо хотел сказать Ultra HD.
  13. 10 Февраля 2017 Птн 19:41:24
    вобщем танцы с бубнами мне надоели и я поступил радикально и просто: снес видео 4К и качаю 1080р Very Happy
  14. 10 Февраля 2017 Птн 22:09:39
    vi_goldman писал : вобщем танцы с бубнами мне надоели и я поступил радикально и просто: снес видео 4К и качаю 1080р Very Happy


    Так и нужно было делать изначально. Смысл париться с конвертерами. Те, кто заливает, уже давно разобрались с этим вопросом и делают в основном качественные рипы.
  15. 10 Февраля 2017 Птн 22:16:02
    kinslayer писал :
    vi_goldman писал ... : вобщем танцы с бубнами мне надоели и я поступил радикально и просто: снес видео 4К и качаю 1080р Very Happy


    Так и нужно было делать изначально. Смысл париться с конвертерами

    чисто по невнимательности, запустил торрент, не глянув параметры видео.