Index · Правила · Поиск· Группы · Регистрация · Личные сообщения· Вход

Список разделов Компьютерный раздел
 
 
 

Раздел: Компьютерный раздел Воспроизведение рывками 

Создана: 27 Января 2015 Втр 13:24:25.
Раздел: "Компьютерный раздел"
Сообщений в теме: 6, просмотров: 368

  1. 27 Января 2015 Втр 13:24:25
    Вчера при просмотре заметил косяк - видео идет с небольшими (каждые 5 секунд примерно) рывками. Сначала грешил на ноутбук (иногда смотрю через него, подключая к плазме). Но закинув файлы в медиаплеер (на риалтековском чипе) увидел тоже самое.

    Вот метаданные видео:

    информация о воспроизведении:
    Размер на выходе:1920 x 1080(1.78:1)
    Частота кадров:29.97
    BitRate: Неизвестно

    [Информация о звуке]
    Аудиокодек:Dolby AC3(0x2000) - Декодер по умолчанию
    Частота дискретизации:48000 -> 48000 выборок/с.
    Скорость потока:0 -> 16 бит на компонент
    Каналы:6 -> 2 каналов
    Bitrate: 0 kbps

    информация о файле:
    H:\СЕЗОН 4\Серия 5. Именуемый первым.mkv
    General
    Unique ID : 220707129727882913364683292637078477198 (0xA60AA5A2557ABB8694C54A3D4383D98E)
    Complete name : H:\СЕЗОН 4\Серия 5. Именуемый первым.mkv
    Format : Matroska
    Format version : Version 4 / Version 2
    File size : 5.21 GiB
    Duration : 54mn 55s
    Overall bit rate mode : Variable
    Overall bit rate : 13.6 Mbps
    Encoded date : UTC 2014-06-05 06:07:35
    Writing application : mkvmerge v6.9.1 ('Blue Panther') 64bit built on Apr 18 2014 18:23:38
    Writing library : libebml v1.3.0 + libmatroska v1.4.1
    Video #1
    ID : 1
    Format : MPEG Video
    Format version : Version 2
    Format profile : Main@High
    Format settings, BVOP : Yes
    Format settings, Matrix : Default
    Format settings, GOP : Variable
    Codec ID : V_MPEG2
    Codec ID/Info : MPEG 1 or 2 Video
    Duration : 54mn 55s
    Bit rate mode : Variable
    Bit rate : 12.6 Mbps
    Maximum bit rate : 38.8 Mbps
    Width : 1 920 pixels
    Height : 1 080 pixels
    Display aspect ratio : 16:9
    Frame rate mode : Constant
    Frame rate : 29.970 fps
    Color space : YUV
    Chroma subsampling : 4:2:0
    Bit depth : 8 bits
    Compression mode : Lossy
    Bits/(Pixel*Frame) : 0.202
    Stream size : 4.82 GiB (92%)
    Default : Yes
    Forced : No
    Audio #2
    ID : 2
    Format : AC-3
    Format/Info : Audio Coding 3
    Mode extension : CM (complete main)
    Format settings, Endianness : Big
    Codec ID : A_AC3
    Duration : 54mn 55s
    Bit rate mode : Constant
    Bit rate : 384 Kbps
    Channel(s) : 6 channels
    Channel positions : Front: L C R, Side: L R, LFE
    Sampling rate : 48.0 KHz
    Bit depth : 16 bits
    Compression mode : Lossy
    Stream size : 151 MiB (3%)
    Language : Russian
    Default : Yes
    Forced : No
    Audio #3
    ID : 3
    Format : AC-3
    Format/Info : Audio Coding 3
    Mode extension : CM (complete main)
    Format settings, Endianness : Big
    Codec ID : A_AC3
    Duration : 54mn 55s
    Bit rate mode : Constant
    Bit rate : 384 Kbps
    Channel(s) : 6 channels
    Channel positions : Front: L C R, Side: L R, LFE
    Sampling rate : 48.0 KHz
    Bit depth : 16 bits
    Compression mode : Lossy
    Stream size : 151 MiB (3%)
    Language : English
    Default : No
    Forced : No

    Как решить проблему, очень неприятно смотреть.
  2. 27 Января 2015 Втр 18:01:06
    vi_goldman писал : Как решить проблему, очень неприятно смотреть.

    Скачайте другой рип Смайлик :-)
  3. 27 Января 2015 Втр 18:09:55
    Dm1gorev1ch писал :
    vi_goldman писал ... : Как решить проблему, очень неприятно смотреть.

    Скачайте другой рип Смайлик :-)


    поддерживаю Норм
  4. 27 Января 2015 Втр 20:45:19
    так проблема все-таки в файле?
  5. 27 Января 2015 Втр 20:57:01
    Скорее всего Confused
  6. 27 Января 2015 Втр 21:36:08
    Профессор, я полагаю с уверенностью порядка 90%, что файл битый. Тем более, что проверено на двух абсолютно разных вариантах. Правильный совет уже дан - скачать другой рип.
 
 
 
Рейтинг@Mail.ru